Blue Murder: Killer Cop Season 1 | Teresa Palmer | Y Donde Estan Las Rubias?

The Vampire Diaries S07E15 HDTV x264-LOL[rartv]

seeders: 377
leechers: 17
updated:
Added by z0n3212.58M in TV
Torrent verified. Downloaded 191,934 times.

DownloadFast Safe Anonymous
movies, software, shows...
Available in versions: 1080p720p480pHDTVWEBRipx264x265iPhone
The Vampire Diaries S07E15 HDTV x264-LOL[rartv] (Size: 239.73 MB)
  rarbg.com.txt 34 bytes
  the.vampire.diaries.715.hdtv-lol.mp4 239.73 MB
  the.vampire.diaries.715.hdtv-lol.nfo 4.26 KB

Description


http://rarbg.to
The.Vampire.Diaries.S07E15.HDTV.x264-LOL[rartv]

image
Screens :

image
Mediainfo :

Video
ID : 1
Format : AVC
Format/Info : Advanced Video Codec
Format profile : [email protected]
Format settings, CABAC : Yes
Format settings, ReFrames : 5 frames
Codec ID : avc1
Codec ID/Info : Advanced Video Coding
Duration : 42mn 26s
Bit rate : 665 Kbps
Maximum bit rate : 5 491 Kbps
Width : 720 pixels
Height : 404 pixels
Display aspect ratio : 16:9
Frame rate mode : Constant
Frame rate : 23.976 (24000/1001) fps
Color space : YUV
Chroma subsampling : 4:2:0
Bit depth : 8 bits
Scan type : Progressive
Bits/(Pixel*Frame) : 0.095
Stream size : 202 MiB (84%)
Writing library : x264 core 148 r2665 a01e339
Encoding settings : cabac=1 / ref=5 / deblock=1:1:1 / analyse=0x3:0x133 / me=umh / subme=9 / psy=1 / psy_rd=1.00:0.00 / mixed_ref=1 / me_range=16 / chroma_me=1 / trellis=2 / 8x8dct=1 / cqm=0 / deadzone=21,11 / fast_pskip=1 / chroma_qp_offset=-2 / threads=13 / lookahead_threads=1 / sliced_threads=0 / nr=0 / decimate=1 / interlaced=0 / bluray_compat=0 / constrained_intra=0 / bframes=3 / b_pyramid=2 / b_adapt=2 / b_bias=0 / direct=3 / weightb=1 / open_gop=0 / weightp=2 / keyint=250 / keyint_min=23 / scenecut=40 / intra_refresh=0 / rc_lookahead=60 / rc=crf / mbtree=1 / crf=20.0 / qcomp=0.60 / qpmin=0 / qpmax=69 / qpstep=4 / ip_ratio=1.40 / aq=1:1.00
Encoded date : UTC 2016-03-03 15:23:12
Tagged date : UTC 2016-03-03 15:23:13
Color range : Limited
Matrix coefficients : BT.709

Audio
ID : 2
Format : AAC
Format/Info : Advanced Audio Codec
Format profile : LC
Codec ID : 40
Duration : 42mn 26s
Bit rate mode : Variable
Bit rate : 121 Kbps
Maximum bit rate : 156 Kbps
Channel(s) : 2 channels
Channel positions : Front: L R
Sampling rate : 48.0 KHz
Frame rate : 46.875 fps (1024 spf)
Compression mode : Lossy
Stream size : 36.6 MiB (15%)
Encoded date : UTC 2016-03-03 15:23:13
Tagged date : UTC 2016-03-03 15:23:13

Related Torrents

torrent name size files age seed leech

Sharing Widget


Download torrent
239.73 MB
seeders:351
leechers:25
The Vampire Diaries S07E15 HDTV x264-LOL[rartv]



To share this torrent use the code below and insert it into comments, status messages, forum posts or your signature.

Torrent: The Vampire Diaries S07E15 HDTV x264-LOL[rartv]

Trackers

tracker name
udp://tracker.openbittorrent.com:80/announce
udp://tracker.publicbt.com:80/announce
udp://tracker.coppersurfer.tk:6969/announce
udp://9.rarbg.me:2710/announce
http://tracker.aletorrenty.pl:2710/announce
udp://glotorrents.pw:6969/announce
http://tracker1.wasabii.com.tw:6969/announce
http://tracker.trackerfix.com/announce
http://glotorrents.com:6969/announce
udp://tracker.opentrackr.org:1337/announce
µTorrent compatible trackers list

Locations

name
KickassTorrents
Torrent hash: 26AD77D68A0A3940260FDF422F1C8390AB49BEA5

Top Comments

2
maxcastillo1013
audio: 10video: 10
thnks
2
iHateHiatus1674
audio: 9video: 9
thanxxx uploader! yes

All Comments

audio
9/10
video
9/10
please, leave only comments related to that torrent
Sign In

User Opinions

Report a bug Open chat