Escuchar | [tvN] 마더.E06.180208.360p-NEXT | Scorpion S04E15 - Wave Goodbye

The Vampire Diaries S07E16 HDTV x264-LOL[rartv]

seeders: 390
leechers: 17
updated:
Added by z0n3212.58M in TV
Torrent verified. Downloaded 115,817 times.

DownloadFast Safe Anonymous
movies, software, shows...
Available in versions: 1080p720p480pHDTVWEBRipx264x265iPhone
The Vampire Diaries S07E16 HDTV x264-LOL[rartv] (Size: 232.51 MB)
  rarbg.com.txt 34 bytes
  the.vampire.diaries.716.hdtv-lol.mp4 232.5 MB
  the.vampire.diaries.716.hdtv-lol.nfo 4.26 KB

Description


http://rarbg.to
The.Vampire.Diaries.S07E16.HDTV.x264-LOL[rartv]

image
Screens :

image
Mediainfo :

Video
ID : 1
Format : AVC
Format/Info : Advanced Video Codec
Format profile : [email protected]
Format settings, CABAC : Yes
Format settings, ReFrames : 5 frames
Codec ID : avc1
Codec ID/Info : Advanced Video Coding
Duration : 41mn 40s
Bit rate : 656 Kbps
Maximum bit rate : 2 779 Kbps
Width : 720 pixels
Height : 404 pixels
Display aspect ratio : 16:9
Frame rate mode : Constant
Frame rate : 23.976 (24000/1001) fps
Color space : YUV
Chroma subsampling : 4:2:0
Bit depth : 8 bits
Scan type : Progressive
Bits/(Pixel*Frame) : 0.094
Stream size : 196 MiB (84%)
Writing library : x264 core 148 r2665 a01e339
Encoding settings : cabac=1 / ref=5 / deblock=1:1:1 / analyse=0x3:0x133 / me=umh / subme=9 / psy=1 / psy_rd=1.00:0.00 / mixed_ref=1 / me_range=16 / chroma_me=1 / trellis=2 / 8x8dct=1 / cqm=0 / deadzone=21,11 / fast_pskip=1 / chroma_qp_offset=-2 / threads=13 / lookahead_threads=1 / sliced_threads=0 / nr=0 / decimate=1 / interlaced=0 / bluray_compat=0 / constrained_intra=0 / bframes=3 / b_pyramid=2 / b_adapt=2 / b_bias=0 / direct=3 / weightb=1 / open_gop=0 / weightp=2 / keyint=250 / keyint_min=23 / scenecut=40 / intra_refresh=0 / rc_lookahead=60 / rc=crf / mbtree=1 / crf=20.0 / qcomp=0.60 / qpmin=0 / qpmax=69 / qpstep=4 / ip_ratio=1.40 / aq=1:1.00
Encoded date : UTC 2016-03-31 20:00:37
Tagged date : UTC 2016-03-31 20:00:38
Color range : Limited
Matrix coefficients : BT.709

Audio
ID : 2
Format : AAC
Format/Info : Advanced Audio Codec
Format profile : LC
Codec ID : 40
Duration : 41mn 39s
Bit rate mode : Variable
Bit rate : 120 Kbps
Maximum bit rate : 158 Kbps
Channel(s) : 2 channels
Channel positions : Front: L R
Sampling rate : 48.0 KHz
Frame rate : 46.875 fps (1024 spf)
Compression mode : Lossy
Stream size : 35.7 MiB (15%)
Encoded date : UTC 2016-03-31 20:00:38
Tagged date : UTC 2016-03-31 20:00:38

Related Torrents

torrent name size files age seed leech

Sharing Widget


Download torrent
232.51 MB
seeders:350
leechers:11
The Vampire Diaries S07E16 HDTV x264-LOL[rartv]



To share this torrent use the code below and insert it into comments, status messages, forum posts or your signature.

Torrent: The Vampire Diaries S07E16 HDTV x264-LOL[rartv]

Trackers

tracker name
udp://tracker.openbittorrent.com:80/announce
udp://tracker.publicbt.com:80/announce
udp://tracker.coppersurfer.tk:6969/announce
http://tracker.aletorrenty.pl:2710/announce
udp://glotorrents.pw:6969/announce
http://tracker1.wasabii.com.tw:6969/announce
http://announce.xxx-tracker.com:2710/announce
http://tracker2.wasabii.com.tw:6969/announce
http://tracker.dler.org:6969/announce
http://tracker.mg64.net:6881/announce
µTorrent compatible trackers list

Locations

name
KickassTorrents
Torrent hash: DA52982130F8A866A6C321D073A1E85AE7F1FF53

Top Comments

3
Jonyuken70
audio: 10video: 10
sweeeeeeet. been waiting what seems like forever for this!
great quality as well.
3
iHateHiatus1674
audio: 10video: 10

All Comments

audio
9/10
video
9/10
please, leave only comments related to that torrent
Sign In

User Opinions

rayron9205, Sylux8599, Drwyrd4588, djdanilo1320, pokahontaz861157, Senval665, carolinacervi547, jbpaes352, Mad_Max348, divril39 ... And 1542 more
geekfactory2317, derekgatz2229, Hardstyle18480, TeslaSpark406, Robado06060674, fahadooov23
Report a bug Open chat